LOGiN PANeL

«    February 2023    »
MoTuWeThFrSaSu
 12345
6789101112
13141516171819
20212223242526
2728 
PoLL





eBooks Tutorials Templates Plugins Scripts Applications GFX Collections SCRiPTMAFiA.ORG
Support SCRiPTMAFiA.ORG
Support SCRiPTMAFiA.ORG
LaST oN NULLeD.org
Bubba Ho-Tep 2002 REMASTERED 1080p BluRay x264-MiMiC 15.4 GB | 01:31:58 | mkv | 1920X1036 | 1.853:1 | 19608 Kbps ,6 Language:English Genres:: ...
Black PanTher Wakanda Forever 2022 BluRay 1080p DTS AC3 x264-MgB 10.4 GB | 02:41:18 | mkv | 1920X804 | 2.40:1 | 7000 Kbps ,6 Language:English Genres:: Action|Adventure|Science ...
Black PanTher 2018 IMAX EDITION BluRay 1080p DTS AC3 x264-MgB 11.52 GB | 02:14:34 | mkv | 1920X1080 | 16:9 | 10000 Kbps ,6 Language:English Genres:: Action|Adventure|Science ...
Bubba Ho-Tep 2002 REMASTERED 720p BluRay x264-MiMiC 6.89 GB | 01:31:58 | mkv | 1280X690 | 1.855:1 | 10064 Kbps ,6 Language:English Genres:: ...
Curious Caterer Dying for Chocolate 2022 1080p AMZN WEBRip 1400MB DD5 1 x264-GalaxyRG Curious Caterer Dying for Chocolate 2022 1080p AMZN WEBRip 1400MB DD5 1 x264-GalaxyRG A Colorado caterer and single ...

RSS
RSS

FRiENDS
Nulled.org Software 8TM URL Shortener




TTC - Survival Mentality The Psychology of Staying Alive

Category: Tutorials


TTC - Survival Mentality The Psychology of Staying Alive
TTC - Survival Mentality The Psychology of Staying Alive
Size: 5.06 GB Type: eLearning Year: 2022 Version: 2022






Survival Mentality: The Psychology of Staying Alive

Course Overview
Have you ever wondered how you could possibly survive a physical assault or imagined what you would do if a natural disaster struck your community? Most likely you have—it’s human nature to wonder. But because we don’t really want to think about it, most of us never spend the time...

General
Complete name : The Teaching Company\Survival Mentality The Psychology of Staying Alive\01 - What It Means to Survive.mp4
Format : MPEG-4
Format profile : Base Media / Version 2
Codec ID : mp42 (isom/avc1/mp42)
File size : 369 MiB
Duration : 25 min 41 s
Overall bit rate mode : Variable
Overall bit rate : 2 007 kb/s
Encoded date : UTC 2020-05-22 13:39:20
Tagged date : UTC 2020-05-22 13:39:20

Video
ID : 1
Format : AVC
Format/Info : Advanced Video Codec
Format profile : [email protected]
Format settings : CABAC / 3 Ref Frames
Format settings, CABAC : Yes
Format settings, Reference frames : 3 frames
Codec ID : avc1
Codec ID/Info : Advanced Video Coding
Duration : 25 min 41 s
Bit rate mode : Constant
Bit rate : 1 904 kb/s
Maximum bit rate : 4 646 kb/s
Width : 1 280 pixels
Height : 720 pixels
Display aspect ratio : 16:9
Frame rate mode : Constant
Frame rate : 29.970 (30000/1001) FPS
Color space : YUV
Chroma subsampling : 4:2:0
Bit depth : 8 bits
Scan type : Progressive
Bits/(Pixel*Frame) : 0.069
Stream size : 350 MiB (95%)
Encoded date : UTC 2020-05-22 13:39:20
Tagged date : UTC 2020-05-22 13:39:20
Codec configuration box : avcC

Audio
ID : 2
Format : AAC LC
Format/Info : Advanced Audio Codec Low Complexity
Codec ID : mp4a-40-2
Duration : 25 min 41 s
Bit rate mode : Variable
Bit rate : 96.0 kb/s
Maximum bit rate : 104 kb/s
Channel(s) : 2 channels
Channel layout : L R
Sampling rate : 44.1 kHz
Frame rate : 43.066 FPS (1024 SPF)
Compression mode : Lossy
Stream size : 17.6 MiB (5%)
Language : English
Encoded date : UTC 2020-05-22 13:39:20
Tagged date : UTC 2020-05-22 13:39:20

Text #1
ID : 1-CC1
Format : EIA-608
Muxing mode : SCTE 128 / DTVCC Transport
Muxing mode, more info : Muxed in Video #1
Duration : 25 min 41 s
Start time (commands) : 300 ms
Start time : 300 ms
Bit rate mode : Constant
Stream size : 0.00 Byte (0%)
Count of frames before first event : 9
Type of the first event : PopOn

Text #2
ID : 1-1
Format : EIA-708
Muxing mode : SCTE 128 / DTVCC Transport
Muxing mode, more info : Muxed in Video #1
Duration : 25 min 41 s
Bit rate mode : Constant
Stream size : 0.00 Byte (0%)





TTC - Survival Mentality The Psychology of Staying Alive

https://rapidgator.net/file/91c95f53433047307f627ce1ffb41219/Survival_Mentality_The_Psychology_of_Staying_Alive_vis87.part1.rar.html
https://rapidgator.net/file/0ac242936ed6b2b8a6399e6aea7b782e/Survival_Mentality_The_Psychology_of_Staying_Alive_vis87.part2.rar.html




   
   
   




We need your support!
Make a donation to help us stay online
        
Bitcoin (BTC)
bc1q08g9d22cxkawsjlf8etuek2pc9n2a3hs4cdrld
	
Bitcoin Cash (BCH)
qqvwexzhvgauxq2apgc4j0ewvcak6hh6lsnzmvtkem

Ethereum (ETH)
0xb55513D2c91A6e3c497621644ec99e206CDaf239

Litecoin (LTC)
ltc1qt6g2trfv9tjs4qj68sqc4uf0ukvc9jpnsyt59u

USDT (ERC20)
0xb55513D2c91A6e3c497621644ec99e206CDaf239

USDT (TRC20)
TYdPNrz7v1P9riWBWZ317oBgJueheGjATm




Related news:

 

Information

 
  Users of GUESTS are not allowed to comment this publication.